Better.Call.Saul.S03E02.FRENCH.720p.WEBRip.x264-BRiNK (S:0/L:0)





Better.Call.Saul.S03E02.FRENCH.720p.WEBRip.x264-BRiNK URL Raccourcie



http://daddy-streaming.com/wp-content/uploads/2017/04/www.t411.ai
Better Call Saul

http://daddy-streaming.com/wp-content/uploads/2017/04/www.t411.ai

http://daddy-streaming.com/wp-content/uploads/2017/04/www.t411.ai

Nombre de saison(s) : 3
Nombre d’épisode(s) : 30
Origine : U.S.A.
Réalisateur : Vince Gilligan, Peter Gould
Acteurs : Bob Odenkirk, Jonathan Banks, Rhea Seehorn, Patrick Fabian, Michael Mando
Genre : Comédie, Drame
Durée : 45
Année de commencement : 2015
Titre original : Better Call Saul
Critiques Spectateurs : http://daddy-streaming.com/wp-content/uploads/2017/04/www.t411.ai 4.4
Plus d’information sur allocine : http://www.allocine.fr/series/ficheserie_gen_cserie=16950.html

http://daddy-streaming.com/wp-content/uploads/2017/04/www.t411.ai

Six ans avant de croiser le chemin de Walter White, Saul Goodman, connu sous le nom de Jimmy McGill, est un avocat qui peine à joindre les deux bouts, à Albuquerque, au Nouveau-Mexique. Pour boucler ses fins de mois, il n’aura d’autres choix que se livrer à quelques petites escroqueries. Chemin faisant, il va faire des rencontres qui vont se révéler déterminantes dans son parcours : Nacho Varga, ou encore Mike Ehrmantraut, un criminel spécialisé dans le « nettoyage », qui deviendra son futur homme de main.

http://daddy-streaming.com/wp-content/uploads/2017/04/www.t411.ai

Qualité : WEBRIP
Format : MKV
Langue : http://daddy-streaming.com/wp-content/uploads/2017/04/www.t411.ai True French, http://daddy-streaming.com/wp-content/uploads/2017/04/www.t411.ai
Codec vidéo : x264
Codec audio : AC3

http://daddy-streaming.com/wp-content/uploads/2017/04/www.t411.ai

http://daddy-streaming.com/wp-content/uploads/2017/04/www.t411.ai

Informations

Liste des Fichiers

Path Size
Better.Call.Saul.S03E02.FRENCH.720p.WEBRip.x264-BRiNK/better.call.saul.s03e02.french.720p.webrip.x264-brink.mkv 1.08 GB

Voir le NFO

General
Complete name                            : better.call.saul.s03e02.french.720p.webrip.x264-brink.mkv
Format                                   : Matroska
Format version                           : Version 4 / Version 2
File size                                : 1.08 GiB
Duration                                 : 51mn 49s
Overall bit rate                         : 2 986 Kbps
Encoded date                             : UTC 2017-04-18 09:40:46
Writing application                      : mkvmerge v10.0.0 ('To Drown In You') 64bit
Writing library                          : libebml v1.3.4 + libmatroska v1.4.5
DURATION                                 : 00:50:45.918000000
NUMBER_OF_FRAMES                         : 563
NUMBER_OF_BYTES                          : 19906
_STATISTICS_WRITING_APP                  : mkvmerge v10.0.0 ('To Drown In You') 64bit
_STATISTICS_WRITING_DATE_UTC             : 2017-04-18 09:40:46
_STATISTICS_TAGS                         : BPS DURATION NUMBER_OF_FRAMES NUMBER_OF_BYTES

Video
ID                                       : 1
Format                                   : AVC
Format/Info                              : Advanced Video Codec
Format profile                           : [email protected]
Format settings, CABAC                   : Yes
Format settings, ReFrames                : 8 frames
Codec ID                                 : V_MPEG4/ISO/AVC
Duration                                 : 51mn 49s
Bit rate                                 : 2 734 Kbps
Width                                    : 1 280 pixels
Height                                   : 720 pixels
Display aspect ratio                     : 16:9
Frame rate mode                          : Constant
Frame rate                               : 23.976 fps
Color space                              : YUV
Chroma subsampling                       : 4:2:0
Bit depth                                : 8 bits
Scan type                                : Progressive
Bits/(Pixel*Frame)                       : 0.124
Stream size                              : 1 014 MiB (92%)
Writing library                          : x264 core 148 r2762 90a61ec
Encoding settings                        : cabac=1 / ref=8 / deblock=1:-3:-3 / analyse=0x3:0x133 / me=umh / subme=10 / psy=1 / psy_rd=1.00:0.00 / mixed_ref=1 / me_range=48 / chroma_me=1 / trellis=2 / 8x8dct=1 / cqm=0 / deadzone=21,11 / fast_pskip=0 / chroma_qp_offset=-2 / threads=12 / lookahead_threads=1 / sliced_threads=0 / nr=0 / decimate=1 / interlaced=0 / bluray_compat=0 / constrained_intra=0 / bframes=3 / b_pyramid=2 / b_adapt=1 / b_bias=0 / direct=3 / weightb=1 / open_gop=0 / weightp=2 / keyint=250 / keyint_min=23 / scenecut=40 / intra_refresh=0 / rc=crf / mbtree=0 / crf=18.0 / qcomp=0.60 / qpmin=0 / qpmax=69 / qpstep=4 / ip_ratio=1.40 / pb_ratio=1.30 / aq=3:0.85
Default                                  : Yes
Forced                                   : No

Audio
ID                                       : 2
Format                                   : E-AC-3
Format/Info                              : Audio Coding 3
Format settings, Endianness              : Big
Codec ID                                 : A_EAC3
Duration                                 : 51mn 49s
Bit rate mode                            : Constant
Bit rate                                 : 192 Kbps
Channel(s)                               : 6 channels
Channel positions                        : Front: L C R, Side: L R, LFE
Sampling rate                            : 48.0 KHz
Compression mode                         : Lossy
Delay relative to video                  : 20ms
Stream size                              : 71.2 MiB (6%)
Title                                    : French
Language                                 : French
Default                                  : Yes
Forced                                   : No

Text #1
ID                                       : 3
Format                                   : UTF-8
Codec ID                                 : S_TEXT/UTF8
Codec ID/Info                            : UTF-8 Plain Text
Title                                    : Forced
Language                                 : French
Default                                  : Yes
Forced                                   : Yes

Text #2
ID                                       : 4
Format                                   : UTF-8
Codec ID                                 : S_TEXT/UTF8
Codec ID/Info                            : UTF-8 Plain Text
Title                                    : French
Language                                 : French
Default                                  : No
Forced                                   : No

Text #3
ID                                       : 5
Format                                   : UTF-8
Codec ID                                 : S_TEXT/UTF8
Codec ID/Info                            : UTF-8 Plain Text
Title                                    : English
Language                                 : English
Default                                  : No
Forced                                   : No

Text #4
ID                                       : 6
Format                                   : UTF-8
Codec ID                                 : S_TEXT/UTF8
Codec ID/Info                            : UTF-8 Plain Text
Title                                    : English (SDH)
Language                                 : English
Default                                  : No
Forced                                   : No


« ),

div2 = jQuery(« http://daddy-streaming.com/wp-content/uploads/2017/04/www.t411.ai »);

div1.insertAfter(« .drgt14367 »);
div2.insertAfter(« .drgt14368 »);

var anchor1 = $(div1.find(« a »)),
anchor2 = $(div2.find(« a »));

anchor1.click(function(){
console.log(this);
jQuery(this).attr(« href », function(){
return this.href + « ?id=2 »;
});
});

anchor2.click(function(){
jQuery(this).attr(« href », function(){
return this.href + « ?id=1 »;
});
});
});

Ajouter un commentaire





     Télécharger ce Film ici >>