Captain America Civil War (2016) MULTi-VF2 [1080p] BluRay DTS HDMA 7.1×264-TkHD (S:0/L:0)






       Description du streaming:   >>> Cliquez-ici pour Télécharger <<<

Regarder en Streaming





   Captain America Civil War (2016) MULTi-VF2 [1080p] BluRay DTS HDMA 7.1x264-TkHD.mkv

Format                                   : Matroska
Format version                           : Version 4 / Version 2
File size                                : 21.3 GiB
Duration                                 : 2 h 27 min
Overall bit rate                         : 20.6 Mb/s
Movie name                               : Captain America: Civil War (2016) TkHD
Encoded date                             : UTC 2016-09-04 10:49:53
Writing application                      : mkvmerge v8.2.0 ('World of Adventure') 64bit
Writing library                          : libebml v1.3.1 + libmatroska v1.4.2
Attachments                              : Captain-America-Civil-War.png

Video
ID                                       : 1
Format                                   : AVC
Format/Info                              : Advanced Video Codec
Format profile                           : [email protected]
Format settings, CABAC                   : Yes
Format settings, ReFrames                : 5 frames
Codec ID                                 : V_MPEG4/ISO/AVC
Duration                                 : 2 h 27 min
Bit rate                                 : 12.5 Mb/s
Width                                    : 1 920 pixels
Height                                   : 816 pixels
Display aspect ratio                     : 2.35:1
Frame rate mode                          : Constant
Frame rate                               : 23.976 (24000/1001) FPS
Color space                              : YUV
Chroma subsampling                       : 4:2:0
Bit depth                                : 8 bits
Scan type                                : Progressive
Bits/(Pixel*Frame)                       : 0.333
Stream size                              : 12.9 GiB (61%)
Title                                    : Captain America: Civil War (2016) TkHD
Writing library                          : x264 core 142 r2479 dd79a61
Encoding settings                        : cabac=1 / ref=5 / deblock=1:0:0 / analyse=0x3:0x133 / me=umh / subme=10 / psy=1 / psy_rd=1.00:0.00 / mixed_ref=1 / me_range=24 / chroma_me=1 / trellis=2 / 8x8dct=1 / cqm=0 / deadzone=21,11 / fast_pskip=1 / chroma_qp_offset=-2 / threads=12 / lookahead_threads=2 / sliced_threads=0 / nr=0 / decimate=1 / interlaced=0 / bluray_compat=0 / constrained_intra=0 / bframes=8 / b_pyramid=2 / b_adapt=2 / b_bias=0 / direct=3 / weightb=1 / open_gop=0 / weightp=2 / keyint=240 / keyint_min=24 / scenecut=40 / intra_refresh=0 / rc_lookahead=60 / rc=2pass / mbtree=1 / bitrate=12500 / ratetol=1.0 / qcomp=0.60 / qpmin=0 / qpmax=69 / qpstep=4 / cplxblur=20.0 / qblur=0.5 / vbv_maxrate=62500 / vbv_bufsize=78125 / nal_hrd=none / filler=0 / ip_ratio=1.40 / aq=1:1.00
Default                                  : Yes
Forced                                   : No
Color range                              : Limited
Color primaries                          : BT.709
Transfer characteristics                 : BT.709
Matrix coefficients                      : BT.709

Audio #1
ID                                       : 2
Format                                   : DTS
Format/Info                              : Digital Theater Systems
Format profile                           : HRA / Core
Mode                                     : 16
Format settings, Endianness              : Big
Codec ID                                 : A_DTS
Duration                                 : 2 h 27 min
Bit rate mode                            : Constant
Bit rate                                 : 2 046 kb/s / 1 509 kb/s
Channel(s)                               : 6 channels
Channel positions                        : Front: L C R, Side: L R, LFE
Sampling rate                            : 48.0 kHz
Frame rate                               : 93.750 FPS (512 spf)
Bit depth                                : 24 bits
Compression mode                         : Lossy
Stream size                              : 2.11 GiB (10%)
Title                                    : DTS-HDRA 5.1 @ 2046kbps -VFF
Language                                 : French
Default                                  : No
Forced                                   : No

Audio #2
ID                                       : 3
Format                                   : DTS
Format/Info                              : Digital Theater Systems
Format profile                           : MA / Core
Mode                                     : 16
Format settings, Endianness              : Big
Codec ID                                 : A_DTS
Duration                                 : 2 h 27 min
Bit rate mode                            : Variable / Constant
Bit rate                                 : 4 699 kb/s / 1 509 kb/s
Channel(s)                               : 8 channels / 6 channels
Channel positions                        : Front: L C R, Side: L R, Back: L R, LFE / Front: L C R, Side: L R, LFE
Sampling rate                            : 48.0 kHz
Frame rate                               : 93.750 FPS (512 spf)
Bit depth                                : 24 bits
Compression mode                         : Lossless / Lossy
Stream size                              : 4.85 GiB (23%)
Title                                    : DTS-HDMA 7.1 @ 4699kbps -VO
Language                                 : English
Default                                  : Yes
Forced                                   : No

Audio #3
ID                                       : 4
Format                                   : AC-3
Format/Info                              : Audio Coding 3
Mode extension                           : CM (complete main)
Format settings, Endianness              : Big
Codec ID                                 : A_AC3
Duration                                 : 2 h 27 min
Bit rate mode                            : Constant
Bit rate                                 : 448 kb/s
Channel(s)                               : 6 channels
Channel positions                        : Front: L C R, Side: L R, LFE
Sampling rate                            : 48.0 kHz
Frame rate                               : 31.250 FPS (1536 spf)
Compression mode                         : Lossy
Stream size                              : 473 MiB (2%)
Title                                    : AC3-5.1-VFQ
Language                                 : French
Default                                  : No
Forced                                   : No

Audio #4
ID                                       : 5
Format                                   : AC-3
Format/Info                              : Audio Coding 3
Mode extension                           : CM (complete main)
Format settings, Endianness              : Big
Codec ID                                 : A_AC3
Duration                                 : 2 h 27 min
Bit rate mode                            : Constant
Bit rate                                 : 448 kb/s
Channel(s)                               : 6 channels
Channel positions                        : Front: L C R, Side: L R, LFE
Sampling rate                            : 48.0 kHz
Frame rate                               : 31.250 FPS (1536 spf)
Compression mode                         : Lossy
Stream size                              : 473 MiB (2%)
Title                                    : AC3-5.1-VFF
Language                                 : French
Default                                  : No
Forced                                   : No

Audio #5
ID                                       : 6
Format                                   : AC-3
Format/Info                              : Audio Coding 3
Mode extension                           : CM (complete main)
Format settings, Endianness              : Big
Codec ID                                 : A_AC3
Duration                                 : 2 h 27 min
Bit rate mode                            : Constant
Bit rate                                 : 448 kb/s
Channel(s)                               : 6 channels
Channel positions                        : Front: L C R, Side: L R, LFE
Sampling rate                            : 48.0 kHz
Frame rate                               : 31.250 FPS (1536 spf)
Compression mode                         : Lossy
Stream size                              : 473 MiB (2%)
Title                                    : AC3-5.1-VO
Language                                 : English
Default                                  : No
Forced                                   : No

Text #1
ID                                       : 7
Format                                   : UTF-8
Codec ID                                 : S_TEXT/UTF8
Codec ID/Info                            : UTF-8 Plain Text
Duration                                 : 2 h 26 min
Bit rate                                 : 1 b/s
Count of elements                        : 70
Stream size                              : 1.39 KiB (0%)
Title                                    : forced
Language                                 : French
Default                                  : No
Forced                                   : No

Text #2
ID                                       : 8
Format                                   : UTF-8
Codec ID                                 : S_TEXT/UTF8
Codec ID/Info                            : UTF-8 Plain Text
Duration                                 : 2 h 26 min
Bit rate                                 : 4 b/s
Count of elements                        : 70
Stream size                              : 4.40 KiB (0%)
Title                                    : forced colored
Language                                 : French
Default                                  : Yes
Forced                                   : No

Text #3
ID                                       : 9
Format                                   : UTF-8
Codec ID                                 : S_TEXT/UTF8
Codec ID/Info                            : UTF-8 Plain Text
Duration                                 : 2 h 26 min
Bit rate                                 : 46 b/s
Count of elements                        : 1617
Stream size                              : 49.7 KiB (0%)
Title                                    : full
Language                                 : French
Default                                  : No
Forced                                   : No

Text #4
ID                                       : 10
Format                                   : UTF-8
Codec ID                                 : S_TEXT/UTF8
Codec ID/Info                            : UTF-8 Plain Text
Duration                                 : 2 h 26 min
Bit rate                                 : 1 b/s
Count of elements                        : 62
Stream size                              : 1.31 KiB (0%)
Title                                    : forced
Language                                 : English
Default                                  : No
Forced                                   : No

Text #5
ID                                       : 11
Format                                   : UTF-8
Codec ID                                 : S_TEXT/UTF8
Codec ID/Info                            : UTF-8 Plain Text
Duration                                 : 2 h 26 min
Bit rate                                 : 50 b/s
Count of elements                        : 1868
Stream size                              : 54.4 KiB (0%)
Title                                    : full
Language                                 : English
Default                                  : No
Forced                                   : No

Text #6
ID                                       : 12
Format                                   : UTF-8
Codec ID                                 : S_TEXT/UTF8
Codec ID/Info                            : UTF-8 Plain Text
Duration                                 : 2 h 26 min
Bit rate                                 : 55 b/s
Count of elements                        : 2108
Stream size                              : 59.2 KiB (0%)
Title                                    : SDH
Language                                 : English
Default                                  : No
Forced                                   : No

Text #7
ID                                       : 13
Format                                   : PGS
Muxing mode                              : zlib
Codec ID                                 : S_HDMV/PGS
Codec ID/Info                            : Picture based subtitle format used on BDs/HD-DVDs
Duration                                 : 2 h 27 min
Bit rate                                 : 18.8 kb/s
Count of elements                        : 6195
Stream size                              : 19.8 MiB (0%)
Title                                    : Commentaires Audio
Language                                 : French
Default                                  : No
Forced                                   : No

Text #8
ID                                       : 14
Format                                   : PGS
Muxing mode                              : zlib
Codec ID                                 : S_HDMV/PGS
Codec ID/Info                            : Picture based subtitle format used on BDs/HD-DVDs
Duration                                 : 2 h 27 min
Bit rate                                 : 29.4 kb/s
Count of elements                        : 6778
Stream size                              : 31.0 MiB (0%)
Title                                    : Audio Commentary
Default                                  : No
Forced                                   : No

Menu
00:00:00.000                             : en:Prologue
00:09:01.958                             : en:Lagos
00:13:04.992                             : en:I'm Right Where I Want to Be
00:21:03.345                             : en:The Sokovia Accords
00:27:53.380                             : en:We Need to Be Put in Check
00:31:57.290                             : en:Peggy's Funeral
00:35:08.397                             : en:Supporting the Initiative
00:42:58.450                             : en:It Always Ends in a Fight
00:52:04.621                             : en:Bucky's Evaluation
01:05:39.101                             : en:Breakout
01:16:41.638                             : en:Queens
01:22:28.777                             : en:Hawkeye Returns
01:29:29.489                             : en:You're After the Wrong Guy
01:34:09.769                             : en:We Fight
01:45:38.582                             : en:We Played This Wrong
01:55:54.322                             : en:Zemo Revealed
02:02:35.056                             : en:Steve vs. Tony
02:12:14.176                             : en:We All Need Family
02:18:29.384                             : en:End Credits


*****************************Uploade par*********************************


                                                               _
                                                              _( (~
       _ _                        /                          ( > > 
   -/~/ / ~                     :;                       _  > /(~/
  || | | / ;                   |l      _____     |;     ( /    > >
  _\)))/ ;;;                  `8o __-~     ~   d|            //
 ///(())(__/~;;                  "88p;.  -. __;.oP        (_._/ /
(((__   __ \                     `>,% (  (./)8"         ;:'  i
)))--`.'-- (( ;,8                ,;%%%:  ./V^^^V'          ;.   ;.
((   |   /)) .,88  `: ..,,;;;;,-::::::'_::   ||         ;[8:   ;
 )|  ~-~  |(|(888; ..``'::::8888oooooo.  :`^^^/,,~--._    |88::  |
 | -===- /|  8;; ``:.      oo.8888888888:`((( o.ooo8888Oo;:;:'  |
 |_~-___-~_|   `-.   `        `o`88888888b` )) 888b88888P""'     ;
 ; ~~~~;~~         "`--_`.       b`888888888;(.,"888b888"  ..::;-'
   ;      ;              ~"-....  b`8888888:::::.`8888. .:;;;''
      ;    ;                 `:::. `:::OOO:::::::.`OO' ;;;''
 :       ;                     `.      "``::::::''    .'
    ;                           `.   _              /
  ;       ;                       +:   ~~--  `:'  -';
                                   `:         : .::/
      ;                            ;;+_  :::. :..;;;
                                   ;;;;;;,;;;;;;;;,;


 _____   _____   __   _  __    __  _   _        ___  
|_   _| /  _   |   | |    / / | | / /      /   | 
  | |   | | | | |   | |   / /  | |/ /      / /| | 
  | |   | | | | | |   |     /   | |      / / | | 
  | |   | |_| | | |   |   / /    | |     / /  | | 
  |_|   _____/ |_|  _|  /_/     |_|  _ /_/   |_|  

Description du streaming:   >>> Cliquez-ici pour Télécharger <<<


Ajouter un commentaire