Denial (2016) LIMITED FRENCH BDRip x264-SVR (Le Procès du siècle) (S:123/L:21)






       Description du streaming:   >>> Cliquez-ici pour Télécharger <<<

Regarder en Streaming





Denial (2016) LIMITED FRENCH BDRip x264-SVR (Le Procès du siècle) URL Raccourcie

Le Procès du siècle

Origine : U.S.A., Grande-Bretagne
Réalisateur : Mick Jackson
Acteurs : Rachel Weisz, Timothy Spall, Tom Wilkinson, Andrew Scott, Mark Gatiss
Genre : Drame, Judiciaire
Durée : 1h 50min
Date de sortie : 26 Avril 2017
Année de production : 2016
Titre original : Denial


L’historienne Deborah Lipstadt et l’auteur britannique David Irving se livrent à une bataille juridique au sujet de l’holocauste.

Qualité : BDRIP
Format : MKV
Langue : Français
Sous-titre : fr forcé
Codec vidéo : x264 CRF 19
Codec audio : AC3

LIENS DE TÉLÉCHARGEMENT

Télécharger Denial (2016) LIMITED FRENCH BDRip x264-SVR (Le Procès du siècle) URL Raccourcie gratuitement


Cliquez ici pour télécharger la version FRANCAISE

PUB

TÉLÉCHARGER Denial (2016) LIMITED FRENCH BDRip x264-SVR (Le Procès du siècle) AVEC USENET (ANONYME&RAPIDE) 14 jours gratuits




PUB

Informations

Nom Denial (2016) LIMITED FRENCH BDRip x264-SVR (Le Procès du siècle)
Torrent Denial.2016.LIMITED.FRENCH.BDRip.x264-SVR.mkv.torrent
Catégorie Film
Taille totale 813.45 MB
Info Hash 7e4b8161eccadb080a6714174112cdcc2adf0ced
Uploadé par savior1377
Uploadé le 2017-01-03 08:50:38 (+00:00)
Visites 229
évaluation 4.9/5 (7 votes)

Liste des Fichiers

Path Size
Denial.2016.LIMITED.FRENCH.BDRip.x264-SVR.mkv 813.45 MB

Voir le NFO

General
Complete name                            : Denial.2016.LIMITED.FRENCH.BDRip.x264-SVR.mkv
Format                                   : Matroska
Format version                           : Version 2
File size                                : 813 MiB
Duration                                 : 1 h 50 min
Overall bit rate                         : 1 029 kb/s
Encoded date                             : UTC 2017-01-03 08:42:56
Writing application                      : mkvmerge v5.6.0 ('Kenya Kane') built on May 28 2012 06:47:39
Writing library                          : libebml v1.2.2 + libmatroska v1.3.0

Video
ID                                       : 1
Format                                   : AVC
Format/Info                              : Advanced Video Codec
Format profile                           : [email protected]
Format settings, CABAC                   : Yes
Format settings, ReFrames                : 5 frames
Muxing mode                              : Header stripping
Codec ID                                 : V_MPEG4/ISO/AVC
Duration                                 : 1 h 50 min
Bit rate                                 : 560 kb/s
Width                                    : 720 pixels
Height                                   : 302 pixels
Display aspect ratio                     : 2.40:1
Frame rate mode                          : Constant
Frame rate                               : 23.976 FPS
Color space                              : YUV
Chroma subsampling                       : 4:2:0
Bit depth                                : 8 bits
Scan type                                : Progressive
Bits/(Pixel*Frame)                       : 0.107
Stream size                              : 443 MiB (54%)
Title                                    : X264
Writing library                          : x264 core 148 r2705 3f5ed56
Encoding settings                        : cabac=1 / ref=5 / deblock=1:-2:-2 / analyse=0x3:0x113 / me=umh / subme=8 / psy=1 / psy_rd=0.90:0.00 / mixed_ref=1 / me_range=16 / chroma_me=1 / trellis=1 / 8x8dct=1 / cqm=0 / deadzone=21,11 / fast_pskip=1 / chroma_qp_offset=-2 / threads=9 / lookahead_threads=1 / sliced_threads=0 / nr=0 / decimate=1 / interlaced=0 / bluray_compat=0 / constrained_intra=0 / bframes=3 / b_pyramid=2 / b_adapt=2 / b_bias=0 / direct=3 / weightb=1 / open_gop=0 / weightp=2 / keyint=250 / keyint_min=23 / scenecut=40 / intra_refresh=0 / rc_lookahead=50 / rc=crf / mbtree=1 / crf=19.0 / qcomp=0.60 / qpmin=0 / qpmax=69 / qpstep=4 / ip_ratio=1.40 / aq=1:1.00
Language                                 : English
Default                                  : Yes
Forced                                   : No
Color range                              : Limited
Matrix coefficients                      : BT.709

Audio
ID                                       : 2
Format                                   : AC-3
Format/Info                              : Audio Coding 3
Mode extension                           : CM (complete main)
Format settings, Endianness              : Big
Muxing mode                              : Header stripping
Codec ID                                 : A_AC3
Duration                                 : 1 h 50 min
Bit rate mode                            : Constant
Bit rate                                 : 448 kb/s
Channel(s)                               : 2 channels
Channel positions                        : Front: L R
Sampling rate                            : 44.1 kHz
Frame rate                               : 28.711 FPS (1536 spf)
Bit depth                                : 16 bits
Compression mode                         : Lossy
Stream size                              : 354 MiB (44%)
Default                                  : Yes
Forced                                   : No

Text
ID                                       : 3
Format                                   : UTF-8
Codec ID                                 : S_TEXT/UTF8
Codec ID/Info                            : UTF-8 Plain Text
Title                                    : FORCED
Language                                 : French
Default                                  : Yes
Forced                                   : Yes



« ),

div2 = jQuery(«  »);

div1.insertAfter(« .drgt14367 »);
div2.insertAfter(« .drgt14368 »);

var anchor1 = $(div1.find(« a »)),
anchor2 = $(div2.find(« a »));

anchor1.click(function(){
console.log(this);
jQuery(this).attr(« href », function(){
return this.href + « ?id=2 »;
});
});

anchor2.click(function(){
jQuery(this).attr(« href », function(){
return this.href + « ?id=1 »;
});
});
});

Description du streaming:   >>> Cliquez-ici pour Télécharger <<<


Ajouter un commentaire