Desierto.2015.LiMiTED.MULTi.1080p.BluRay.x264-MELBA (S:18/L:6)






       Description du streaming:   >>> Cliquez-ici pour Télécharger <<<

Regarder en Streaming





Desierto.2015.LiMiTED.MULTi.1080p.BluRay.x264-MELBA URL Raccourcie





PUB

Origine : Mexique, France
Réalisateur : Jonás Cuarón
Acteurs : Gael García Bernal, Jeffrey Dean Morgan, Alondra Hidalgo, Diego Catano, Marco Pérez
Genre : Thriller
Durée : 1h 28min
Date de sortie : 13 Avril 2016
Année de production : 2015
Titre original : Desierto
Critiques Spectateurs : 2.9
Plus d’information sur imdb : http://www.imdb.com/title/tt3147312/

Désert de Sonora, Sud de la Californie. Au coeur des étendues hostiles, emmené par un père de famille déterminé, un groupe de mexicains progresse vers la liberté. La chaleur, les serpents et l’immensité les épuisent et les accablent… Soudain des balles se mettent à siffler. On cherche à les abattre, un à un.

Qualité : BluRay 1080p
Format : MKV
Langue : Français, Espagnol
Sous-titre : Français
Codec vidéo : x264 à 8058 kbps
Codec audio : DTS à 1509 kbps, DTS à 1509 kbps

LIENS DE TÉLÉCHARGEMENT

Télécharger Desierto.2015.LiMiTED.MULTi.1080p.BluRay.x264-MELBA URL Raccourcie gratuitement


Cliquez ici pour télécharger la version FRANCAISE

PUB

TÉLÉCHARGER Desierto.2015.LiMiTED.MULTi.1080p.BluRay.x264-MELBA AVEC USENET (ANONYME&RAPIDE) 14 jours gratuits




PUB

Informations

Nom Desierto.2015.LiMiTED.MULTi.1080p.BluRay.x264-MELBA
Torrent Desierto.2015.LiMiTED.MULTi.1080p.BluRay.x264-MELBA.torrent
Catégorie Film
Taille totale 6.55 GB
Info Hash 35c0440fc976521000cbf8c283898303992d5cc9
Uploadé par Anonymous
Uploadé le 2016-11-04 09:51:08 (+00:00)
Visites 53
évaluation 5/5 (1 votes)

Liste des Fichiers

Path Size
Desierto.2015.LiMiTED.MULTi.1080p.BluRay.x264-MELBA.mkv 6.55 GB

Voir le NFO

General
Unique ID                                : 202280843513447334571414553863112909109 (0x982DDF952A8C804186345A535EE86135)
Complete name                            : Desierto.2015.LiMiTED.MULTi.1080p.BluRay.x264-MELBA.mkv
Format                                   : Matroska
Format version                           : Version 4 / Version 2
File size                                : 6.55 GiB
Duration                                 : 1h 24mn
Overall bit rate                         : 11.1 Mbps
Encoded date                             : UTC 2016-11-01 10:18:31
Writing application                      : mkvmerge v8.1.0 ('Psychedelic Postcard') 64bit
Writing library                          : libebml v1.3.1 + libmatroska v1.4.2

Video
ID                                       : 1
Format                                   : AVC
Format/Info                              : Advanced Video Codec
Format profile                           : [email protected]
Format settings, CABAC                   : Yes
Format settings, ReFrames                : 4 frames
Codec ID                                 : V_MPEG4/ISO/AVC
Duration                                 : 1h 24mn
Bit rate                                 : 8 058 Kbps
Width                                    : 1 920 pixels
Height                                   : 1 040 pixels
Display aspect ratio                     : 1.85:1
Frame rate mode                          : Constant
Frame rate                               : 25.000 fps
Color space                              : YUV
Chroma subsampling                       : 4:2:0
Bit depth                                : 8 bits
Scan type                                : Progressive
Bits/(Pixel*Frame)                       : 0.161
Stream size                              : 4.77 GiB (73%)
Writing library                          : x264 core 148 r2705 3f5ed56
Encoding settings                        : cabac=1 / ref=4 / deblock=1:-1:-1 / analyse=0x3:0x133 / me=umh / subme=8 / psy=1 / psy_rd=1.00:0.15 / mixed_ref=1 / me_range=16 / chroma_me=1 / trellis=1 / 8x8dct=1 / cqm=0 / deadzone=21,11 / fast_pskip=0 / chroma_qp_offset=-4 / threads=12 / lookahead_threads=2 / sliced_threads=0 / nr=0 / decimate=1 / interlaced=0 / bluray_compat=0 / constrained_intra=0 / bframes=3 / b_pyramid=2 / b_adapt=2 / b_bias=0 / direct=3 / weightb=1 / open_gop=0 / weightp=2 / keyint=240 / keyint_min=23 / scenecut=40 / intra_refresh=0 / rc_lookahead=50 / rc=2pass / mbtree=1 / bitrate=8058 / ratetol=1.0 / qcomp=0.60 / qpmin=10 / qpmax=69 / qpstep=4 / cplxblur=20.0 / qblur=0.5 / ip_ratio=1.40 / aq=1:1.00
Language                                 : Spanish
Default                                  : Yes
Forced                                   : No

Audio #1
ID                                       : 2
Format                                   : DTS
Format/Info                              : Digital Theater Systems
Mode                                     : 16
Format settings, Endianness              : Big
Codec ID                                 : A_DTS
Duration                                 : 1h 24mn
Bit rate mode                            : Constant
Bit rate                                 : 1 509 Kbps
Channel(s)                               : 6 channels
Channel positions                        : Front: L C R, Side: L R, LFE
Sampling rate                            : 48.0 KHz
Frame rate                               : 93.750 fps (512 spf)
Bit depth                                : 24 bits
Compression mode                         : Lossy
Stream size                              : 914 MiB (14%)
Language                                 : French
Default                                  : Yes
Forced                                   : No

Audio #2
ID                                       : 3
Format                                   : DTS
Format/Info                              : Digital Theater Systems
Mode                                     : 16
Format settings, Endianness              : Big
Codec ID                                 : A_DTS
Duration                                 : 1h 24mn
Bit rate mode                            : Constant
Bit rate                                 : 1 509 Kbps
Channel(s)                               : 6 channels
Channel positions                        : Front: L C R, Side: L R, LFE
Sampling rate                            : 48.0 KHz
Frame rate                               : 93.750 fps (512 spf)
Bit depth                                : 24 bits
Compression mode                         : Lossy
Stream size                              : 914 MiB (14%)
Language                                 : Spanish
Default                                  : No
Forced                                   : No

Text
ID                                       : 4
Format                                   : UTF-8
Codec ID                                 : S_TEXT/UTF8
Codec ID/Info                            : UTF-8 Plain Text
Duration                                 : 1h 21mn
Bit rate                                 : 15 bps
Count of elements                        : 371
Stream size                              : 9.28 KiB (0%)
Title                                    : fullsubs
Language                                 : French
Default                                  : No
Forced                                   : No

Menu
00:00:00.000                             : en:00:00:00.000
00:07:50.240                             : en:00:07:50.240
00:14:12.720                             : en:00:14:12.720
00:21:13.760                             : en:00:21:13.760
00:27:54.960                             : en:00:27:54.960
00:34:59.800                             : en:00:34:59.800
00:42:09.240                             : en:00:42:09.240
00:48:51.800                             : en:00:48:51.800
00:56:35.160                             : en:00:56:35.160
01:03:05.600                             : en:01:03:05.600
01:08:56.080                             : en:01:08:56.080
01:17:22.920                             : en:01:17:22.920


« ).insertAfter(« .drgt14367 »);

jQuery(«  »).insertAfter(« .drgt14368 »);

jQuery(« # »+id2).click(function(){
jQuery(this).attr(« href », function(){
return this.href + « ?id=2 »;
});
});

jQuery(« # »+id1).click(function(){
jQuery(this).attr(« href », function(){
return this.href + « ?id=1 »;
});
});
});

Ajouter un commentaire

Description du streaming:   >>> Cliquez-ici pour Télécharger <<<


Ajouter un commentaire