George of the Jungle (1997) MULTi VF2 [1080p] Web-DL x264-PopHD (George de la jungle) (S:53/L:14)






       Description du streaming:   >>> Cliquez-ici pour Télécharger <<<

Regarder en Streaming





------------------------------------------------------------------------
--------------------     Team PopHD present     --------------------
------------------------------------------------------------------------

----------------------------- GENERAL -------------------------------

 
      George of the Jungle (1997) MULTi VF2 [1080p] BluRay x264-PopHD.mkv

Format                                   : Matroska
Format version                           : Version 4 / Version 2
File size                                : 2.29 GiB
Duration                                 : 1 h 28 min
Overall bit rate                         : 3 716 kb/s
Movie name                               : George of the Jungle (1997) PopHD
Encoded date                             : UTC 2016-08-29 10:22:17
Writing application                      : mkvmerge v8.2.0 ('World of Adventure') 64bit
Writing library                          : libebml v1.3.1 + libmatroska v1.4.2
Attachments                              : george-of-the-jungle-2.jpg

Video
ID                                       : 1
Format                                   : AVC
Format/Info                              : Advanced Video Codec
Format profile                           : [email protected]
Format settings, CABAC                   : Yes
Format settings, ReFrames                : 4 frames
Codec ID                                 : V_MPEG4/ISO/AVC
Duration                                 : 1 h 23 min
Bit rate                                 : 2 850 kb/s
Width                                    : 1 920 pixels
Height                                   : 1 040 pixels
Display aspect ratio                     : 1.85:1
Frame rate mode                          : Constant
Frame rate                               : 25.000 FPS
Color space                              : YUV
Chroma subsampling                       : 4:2:0
Bit depth                                : 8 bits
Scan type                                : Progressive
Bits/(Pixel*Frame)                       : 0.057
Stream size                              : 1.67 GiB (73%)
Title                                    : George of the Jungle (1997) PopHD
Writing library                          : x264 core 142 r2479 dd79a61

Audio #1
ID                                       : 2
Format                                   : AC-3
Format/Info                              : Audio Coding 3
Mode extension                           : CM (complete main)
Format settings, Endianness              : Big
Codec ID                                 : A_AC3
Duration                                 : 1 h 28 min
Bit rate mode                            : Constant
Bit rate                                 : 448 kb/s
Channel(s)                               : 6 channels
Channel positions                        : Front: L C R, Side: L R, LFE
Sampling rate                            : 48.0 kHz
Frame rate                               : 31.250 FPS (1536 spf)
Compression mode                         : Lossy
Stream size                              : 282 MiB (12%)
Title                                    : AC3-5.1-VFQ
Language                                 : French
Default                                  : Yes
Forced                                   : No

Audio #2
ID                                       : 3
Format                                   : AC-3
Format/Info                              : Audio Coding 3
Mode extension                           : CM (complete main)
Format settings, Endianness              : Big
Codec ID                                 : A_AC3
Duration                                 : 1 h 23 min
Bit rate mode                            : Constant
Bit rate                                 : 384 kb/s
Channel(s)                               : 6 channels
Channel positions                        : Front: L C R, Side: L R, LFE
Sampling rate                            : 48.0 kHz
Frame rate                               : 31.250 FPS (1536 spf)
Compression mode                         : Lossy
Stream size                              : 230 MiB (10%)
Title                                    : AC3-5.1-VO
Language                                 : English
Default                                  : No
Forced                                   : No

Audio #3
ID                                       : 4
Format                                   : AC-3
Format/Info                              : Audio Coding 3
Format profile                           : Dolby Digital
Mode extension                           : CM (complete main)
Format settings, Endianness              : Big
Codec ID                                 : A_AC3
Duration                                 : 1 h 27 min
Bit rate mode                            : Constant
Bit rate                                 : 192 kb/s
Channel(s)                               : 2 channels
Channel positions                        : Front: L R
Sampling rate                            : 48.0 kHz
Frame rate                               : 31.250 FPS (1536 spf)
Compression mode                         : Lossy
Stream size                              : 121 MiB (5%)
Title                                    : AC3-2.0-VFF
Language                                 : French
Default                                  : No
Forced                                   : No

Text #1
ID                                       : 5
Format                                   : UTF-8
Codec ID                                 : S_TEXT/UTF8
Codec ID/Info                            : UTF-8 Plain Text
Duration                                 : 1 h 17 min
Bit rate                                 : 3 b/s
Count of elements                        : 20
Stream size                              : 1.74 KiB (0%)
Title                                    : forced colored
Language                                 : French
Default                                  : Yes
Forced                                   : No

Text #2
ID                                       : 6
Format                                   : UTF-8
Codec ID                                 : S_TEXT/UTF8
Codec ID/Info                            : UTF-8 Plain Text
Duration                                 : 1 h 17 min
Bit rate                                 : 1 b/s
Count of elements                        : 20
Stream size                              : 905 Bytes (0%)
Title                                    : forced
Language                                 : French
Default                                  : No
Forced                                   : No

Text #3
ID                                       : 7
Format                                   : UTF-8
Codec ID                                 : S_TEXT/UTF8
Codec ID/Info                            : UTF-8 Plain Text
Duration                                 : 1 h 27 min
Bit rate                                 : 70 b/s
Count of elements                        : 1271
Stream size                              : 45.0 KiB (0%)
Title                                    : full
Language                                 : English
Default                                  : No
Forced                                   : No

Text #4
ID                                       : 8
Format                                   : UTF-8
Codec ID                                 : S_TEXT/UTF8
Codec ID/Info                            : UTF-8 Plain Text
Duration                                 : 1 h 27 min
Bit rate                                 : 81 b/s
Count of elements                        : 1452
Stream size                              : 52.2 KiB (0%)
Title                                    : SDH
Language                                 : English
Default                                  : No
Forced                                   : No

Menu
00:00:00.000                             : en:Chapitre 01
00:00:13.480                             : en:Chapitre 02
00:04:47.120                             : en:Chapitre 03
00:10:38.760                             : en:Chapitre 04
00:19:14.640                             : en:Chapitre 05
00:22:26.080                             : en:Chapitre 06
00:27:28.400                             : en:Chapitre 07
00:28:33.960                             : en:Chapitre 08
00:33:02.040                             : en:Chapitre 09
00:41:24.280                             : en:Chapitre 10
00:43:37.280                             : en:Chapitre 11
00:47:59.720                             : en:Chapitre 12
00:49:22.120                             : en:Chapitre 13
00:53:02.800                             : en:Chapitre 14
00:54:34.720                             : en:Chapitre 15
01:02:23.800                             : en:Chapitre 16
01:12:39.880                             : en:Chapitre 17
01:18:50.880                             : en:Chapitre 18
01:21:37.080                             : en:Chapitre 19

------------------------------- SOURCES --------------------------------

Web-DL

VFF: Georges de la jungle DVDR Mulit5 DjBilly0801 

VFQ: Mon DVD (NTSC)

Encodé par Tonyka                                         Enjoy !!                                            

Description du streaming:   >>> Cliquez-ici pour Télécharger <<<


Ajouter un commentaire