Independence Day Resurgence (2016) MULTi VF2 [1080p] BluRay x264-PopHD (S:252/L:69)






       Description du streaming:   >>> Cliquez-ici pour Télécharger <<<

Regarder en Streaming





------------------------------------------------------------------------
--------------------     Team PopHD present     --------------------
------------------------------------------------------------------------

------------------------------ GENERAL -------------------------------


    Independence Day Resurgence (2016) MULTi VF2 [1080p] BluRay x264-PopHD.mkv

Format                                   : Matroska
Format version                           : Version 4 / Version 2
File size                                : 3.29 GiB
Duration                                 : 1 h 59 min
Overall bit rate                         : 3 931 kb/s
Movie name                               : Independence Day Resurgence (2016) PopHD
Encoded date                             : UTC 2016-10-20 19:58:16
Writing application                      : mkvmerge v8.2.0 ('World of Adventure') 64bit
Writing library                          : libebml v1.3.1 + libmatroska v1.4.2
Cover                                    : Yes
Attachments                              : independence-day-2-cover TkHD.jpg

Video
ID                                       : 1
Format                                   : AVC
Format/Info                              : Advanced Video Codec
Format profile                           : [email protected]
Format settings, CABAC                   : Yes
Format settings, ReFrames                : 5 frames
Codec ID                                 : V_MPEG4/ISO/AVC
Duration                                 : 1 h 59 min
Bit rate                                 : 2 550 kb/s
Width                                    : 1 920 pixels
Height                                   : 800 pixels
Display aspect ratio                     : 2.40:1
Frame rate mode                          : Constant
Frame rate                               : 23.976 (24000/1001) FPS
Color space                              : YUV
Chroma subsampling                       : 4:2:0
Bit depth                                : 8 bits
Scan type                                : Progressive
Bits/(Pixel*Frame)                       : 0.069
Stream size                              : 2.13 GiB (65%)
Title                                    : Independence Day Resurgence (2016) PopHD
Writing library                          : x264 core 142 r2389 956c8d8

Audio #1
ID                                       : 2
Format                                   : AC-3
Format/Info                              : Audio Coding 3
Mode extension                           : CM (complete main)
Format settings, Endianness              : Big
Codec ID                                 : A_AC3
Duration                                 : 1 h 59 min
Bit rate mode                            : Constant
Bit rate                                 : 448 kb/s
Channel(s)                               : 6 channels
Channel positions                        : Front: L C R, Side: L R, LFE
Sampling rate                            : 48.0 kHz
Frame rate                               : 31.250 FPS (1536 spf)
Compression mode                         : Lossy
Stream size                              : 384 MiB (11%)
Title                                    : AC3-5.1-VFF
Language                                 : French
Default                                  : No
Forced                                   : No

Audio #2
ID                                       : 3
Format                                   : AC-3
Format/Info                              : Audio Coding 3
Mode extension                           : CM (complete main)
Format settings, Endianness              : Big
Codec ID                                 : A_AC3
Duration                                 : 1 h 59 min
Bit rate mode                            : Constant
Bit rate                                 : 448 kb/s
Channel(s)                               : 6 channels
Channel positions                        : Front: L C R, Side: L R, LFE
Sampling rate                            : 48.0 kHz
Frame rate                               : 31.250 FPS (1536 spf)
Compression mode                         : Lossy
Stream size                              : 384 MiB (11%)
Title                                    : AC3-5.1-VO
Language                                 : English
Default                                  : Yes
Forced                                   : No

Audio #3
ID                                       : 4
Format                                   : AC-3
Format/Info                              : Audio Coding 3
Mode extension                           : CM (complete main)
Format settings, Endianness              : Big
Codec ID                                 : A_AC3
Duration                                 : 1 h 59 min
Bit rate mode                            : Constant
Bit rate                                 : 448 kb/s
Channel(s)                               : 6 channels
Channel positions                        : Front: L C R, Side: L R, LFE
Sampling rate                            : 48.0 kHz
Frame rate                               : 31.250 FPS (1536 spf)
Compression mode                         : Lossy
Stream size                              : 384 MiB (11%)
Title                                    : AC3-5.1-VFQ
Language                                 : French
Default                                  : No
Forced                                   : No

Text #1
ID                                       : 5
Format                                   : UTF-8
Codec ID                                 : S_TEXT/UTF8
Codec ID/Info                            : UTF-8 Plain Text
Duration                                 : 1 h 56 min
Bit rate                                 : 0 b/s
Count of elements                        : 21
Stream size                              : 704 Bytes (0%)
Title                                    : forced
Language                                 : French
Default                                  : No
Forced                                   : No

Text #2
ID                                       : 6
Format                                   : UTF-8
Codec ID                                 : S_TEXT/UTF8
Codec ID/Info                            : UTF-8 Plain Text
Duration                                 : 1 h 56 min
Bit rate                                 : 1 b/s
Count of elements                        : 21
Stream size                              : 1.28 KiB (0%)
Title                                    : forced colored
Language                                 : French
Default                                  : Yes
Forced                                   : No

Text #3
ID                                       : 7
Format                                   : UTF-8
Codec ID                                 : S_TEXT/UTF8
Codec ID/Info                            : UTF-8 Plain Text
Duration                                 : 1 h 58 min
Bit rate                                 : 63 b/s
Count of elements                        : 1724
Stream size                              : 55.5 KiB (0%)
Title                                    : full
Language                                 : French
Default                                  : No
Forced                                   : No

Text #4
ID                                       : 8
Format                                   : UTF-8
Codec ID                                 : S_TEXT/UTF8
Codec ID/Info                            : UTF-8 Plain Text
Duration                                 : 1 h 34 min
Bit rate                                 : 0 b/s
Count of elements                        : 4
Stream size                              : 132 Bytes (0%)
Title                                    : forced
Language                                 : English
Default                                  : No
Forced                                   : No

Text #5
ID                                       : 9
Format                                   : UTF-8
Codec ID                                 : S_TEXT/UTF8
Codec ID/Info                            : UTF-8 Plain Text
Duration                                 : 1 h 50 min
Bit rate                                 : 66 b/s
Count of elements                        : 1895
Stream size                              : 53.5 KiB (0%)
Title                                    : full
Language                                 : English
Default                                  : No
Forced                                   : No

Text #6
ID                                       : 10
Format                                   : UTF-8
Codec ID                                 : S_TEXT/UTF8
Codec ID/Info                            : UTF-8 Plain Text
Duration                                 : 1 h 50 min
Bit rate                                 : 73 b/s
Count of elements                        : 2159
Stream size                              : 59.7 KiB (0%)
Title                                    : SDH
Language                                 : English
Default                                  : No
Forced                                   : No

Text #7
ID                                       : 11
Format                                   : PGS
Muxing mode                              : zlib
Codec ID                                 : S_HDMV/PGS
Codec ID/Info                            : Picture based subtitle format used on BDs/HD-DVDs
Duration                                 : 1 h 50 min
Bit rate                                 : 20.4 kb/s
Count of elements                        : 3842
Stream size                              : 16.2 MiB (0%)
Title                                    : commentary
Language                                 : English
Default                                  : No
Forced                                   : No

Text #8
ID                                       : 12
Format                                   : PGS
Muxing mode                              : zlib
Codec ID                                 : S_HDMV/PGS
Codec ID/Info                            : Picture based subtitle format used on BDs/HD-DVDs
Duration                                 : 1 h 59 min
Bit rate                                 : 16.5 kb/s
Count of elements                        : 3718
Stream size                              : 14.1 MiB (0%)
Title                                    : commentaires
Language                                 : French
Default                                  : No
Forced                                   : No

Menu
00:00:00.000                             : :Chapter 1
00:05:37.211                             : :Chapter 2
00:09:15.429                             : :Chapter 3
00:14:06.846                             : :Chapter 4
00:19:40.345                             : :Chapter 5
00:22:59.127                             : :Chapter 6
00:27:10.253                             : :Chapter 7
00:31:37.770                             : :Chapter 8
00:39:12.099                             : :Chapter 9
00:43:41.243                             : :Chapter 10
00:47:46.488                             : :Chapter 11
00:52:32.190                             : :Chapter 12
00:59:10.130                             : :Chapter 13
01:02:00.341                             : :Chapter 14
01:07:12.194                             : :Chapter 15
01:09:54.940                             : :Chapter 16
01:13:11.845                             : :Chapter 17
01:18:27.577                             : :Chapter 18
01:22:45.710                             : :Chapter 19
01:27:52.016                             : :Chapter 20
01:32:36.592                             : :Chapter 21
01:39:38.597                             : :Chapter 22
01:47:19.891                             : :Chapter 23
01:50:37.214                             : :Chapter 24

------------------------------- SOURCES --------------------------------

BluRay Zone A
Audio VFF: Independence Day Resurgence 2016 TRUEFRENCH BluRay 1080 x265 HEVC DTS STARLIGHTER   (Thank's)

Encodé par Tonyka                                         Enjoy !! 

Description du streaming:   >>> Cliquez-ici pour Télécharger <<<


Ajouter un commentaire