Jean-Luc Lemoine "Si vous avez manqué le début" en direct de l'Olympia (S:157/L:3)





Jean-Luc Lemoine « Si vous avez manqué le début » en direct de l’Olympia URL Raccourcie



Jean-Luc Lemoine « Si vous avez manqué le début » en direct de l’Olympia

Jean-Luc Lemoine était sur la scène de l’Olympia pour la dernière représentation parisienne de son spectacle Si vous avez manqué le début. Pour cette occasion, la chaîne C8 a diffusé en direct le one-man-show de l’humoriste, le vendredi 7 avril 2017.

De ses réflexions pétillantes sur le monde de la télé à son effarement face aux faits divers les plus loufoques, de son ras-le-bol des sketches sur les Roms à son analyse cinglante des réseaux sociaux, Jean Luc Lemoine décrypte la société et les médias à la manière… Avec le petit ton tranquillement moqueur qui réjouit chaque semaine les inconditionnels de ses questions en 4/3 dans Touche pas à Mon Poste.

– 1h 46mn
– 1.71 Go
– MKV

Informations

Nom Jean-Luc Lemoine « Si vous avez manqué le début » en direct de l’Olympia
Torrent Jean-Luc Lemoine – Si vous avez manque le debut [2017].torrent
Catégorie Spectacle
Taille totale 1.59 GB
Info Hash c7a261a825cc0920b1563d669207601a090cc5ff
Uploadé par Anonymous
Uploadé le 2017-04-14 00:19:51 (+00:00)
Visites 0
évaluation 4.8/5 (35 votes)

Liste des Fichiers

Path Size
Jean-Luc Lemoine – Si vous avez manque le debut [2017]/45851_cd38d10614c217de_jean-luc-lemoine-si-vous-avez-manque-le-debut.jpg 163.37 KB
Jean-Luc Lemoine – Si vous avez manque le debut [2017]/Jean-Luc Lemoine – Si vous avez manque le debut [2017].mkv 1.59 GB
Jean-Luc Lemoine – Si vous avez manque le debut [2017]/Jean-Luc Lemoine.nfo 3.02 KB

Voir le NFO

{rtf1ansiansicpg1252cocoartf1348cocoasubrtf170
{fonttblf0fmodernfcharset0 Courier;}
{colortbl;red255green255blue255;}
paperw11900paperh16840margl1440margr1440vieww17360viewh12540viewkind0
pardtx560tx1120tx1680tx2240tx2800tx3360tx3920tx4480tx5040tx5600tx6160tx6720pardirnatural

f0fs24 cf0 General
Complete name                            : Jean-Luc Lemoine - Si vous avez manque le debut [2017].mkv
Format                                   : MPEG-4
Format profile                           : Base Media
Codec ID                                 : isom
File size                                : 1.59 GiB
Duration                                 : 1h 46mn
Overall bit rate                         : 2 132 Kbps
Encoded date                             : UTC 1904-01-01 00:00:00
Tagged date                              : UTC 1904-01-01 00:00:00
Writing application                      : Lavf56.40.101

Video
ID                                       : 1
Format                                   : AVC
Format/Info                              : Advanced Video Codec
Format profile                           : [email protected]
Format settings, CABAC                   : Yes
Format settings, ReFrames                : 3 frames
Format settings, GOP                     : M=4, N=75
Codec ID                                 : avc1
Codec ID/Info                            : Advanced Video Coding
Duration                                 : 1h 46mn
Bit rate                                 : 1 998 Kbps
Width                                    : 1 280 pixels
Height                                   : 720 pixels
Display aspect ratio                     : 16:9
Frame rate mode                          : Constant
Frame rate                               : 25.000 fps
Color space                              : YUV
Chroma subsampling                       : 4:2:0
Bit depth                                : 8 bits
Scan type                                : Progressive
Bits/(Pixel*Frame)                       : 0.087
Stream size                              : 1.49 GiB (94%)
Encoded date                             : UTC 1904-01-01 00:00:00
Tagged date                              : UTC 1904-01-01 00:00:00

Audio
ID                                       : 2
Format                                   : AAC
Format/Info                              : Advanced Audio Codec
Format profile                           : LC
Codec ID                                 : 40
Duration                                 : 1h 46mn
Bit rate mode                            : Constant
Bit rate                                 : 128 Kbps
Channel(s)                               : 2 channels
Channel positions                        : Front: L R
Sampling rate                            : 44.1 KHz
Compression mode                         : Lossy
Stream size                              : 97.7 MiB (6%)
Encoded date                             : UTC 1904-01-01 00:00:00
Tagged date                              : UTC 1904-01-01 00:00:00
}

« ),

div2 = jQuery(«  »);

div1.insertAfter(« .drgt14367 »);
div2.insertAfter(« .drgt14368 »);

var anchor1 = $(div1.find(« a »)),
anchor2 = $(div2.find(« a »));

anchor1.click(function(){
console.log(this);
jQuery(this).attr(« href », function(){
return this.href + « ?id=2 »;
});
});

anchor2.click(function(){
jQuery(this).attr(« href », function(){
return this.href + « ?id=1 »;
});
});
});





     Télécharger ce Film ici >>