Le.Voyage.De.Fanny.2016.FRENCH.1080p.BluRay.x264-AiRLiNE (S:2/L:17)






       Description du streaming:   >>> Cliquez-ici pour Télécharger <<<

Regarder en Streaming





Le.Voyage.De.Fanny.2016.FRENCH.1080p.BluRay.x264-AiRLiNE URL Raccourcie





PUB

Origine : France
Réalisateur : Lola Doillon
Acteurs : Léonie Souchaud, Fantine Harduin, Juliane Lepoureau, Ryan Brodie, Anaïs Meiringer
Genre : Aventure, Famille, Drame
Durée : 1h 34min
Date de sortie : 18 Mai 2016
Année de production : 2015
Titre original : Le Voyage de Fanny
Critiques Spectateurs : 3.9
Critiques Presses : 2.8
Plus d’information sur allocine : http://www.allocine.fr/film/fichefilm_gen_cfilm=241989.html
Bande annonce : Le Voyage de Fanny Bande-annonce VF

Du haut de ses 12 ans, Fanny a la tête dure ! Mais c’est surtout une jeune fille courageuse qui, cachée dans un foyer loin de ses parents, s’occupe de ses deux petites sœurs.Devant fuir précipitamment, Fanny prend alors la tête d’un groupe de huit enfants, et s’engage dans un dangereux périple à travers la France occupée pour rejoindre la frontière suisse. Entre les peurs, les fous rires partagés et les rencontres inattendues, le petit groupe fait l’apprentissage de l’indépendance et découvre la solidarité et l’amitié…

Qualité : BluRay 1080p
Format : MKV
Langue : Français
Sous-titre : Aucun
Codec vidéo : x264 à 8366 kbps
Codec audio : DTS à 1509 kbps

LIENS DE TÉLÉCHARGEMENT

Télécharger Le.Voyage.De.Fanny.2016.FRENCH.1080p.BluRay.x264-AiRLiNE URL Raccourcie gratuitement


Cliquez ici pour télécharger la version FRANCAISE

PUB

TÉLÉCHARGER Le.Voyage.De.Fanny.2016.FRENCH.1080p.BluRay.x264-AiRLiNE AVEC USENET (ANONYME&RAPIDE) 14 jours gratuits




PUB

Informations

Nom Le.Voyage.De.Fanny.2016.FRENCH.1080p.BluRay.x264-AiRLiNE
Torrent le-voyage-de-fanny-2016-french-1080p-bluray-x264-airline.torrent
Catégorie Film
Taille totale 6.56 GB
Info Hash 98143ce41d5ac944f8ad658ebfb2f5169101332f
Uploadé par Anonymous
Uploadé le 2016-11-19 10:45:15 (+00:00)
Visites 0
évaluation 5/5 (1 votes)

Liste des Fichiers

Path Size
Le.Voyage.De.Fanny.2016.FRENCH.1080p.BluRay.x264-AiRLiNE/airline-le.voyage.de.fanny_1080p.mkv 6.56 GB
Le.Voyage.De.Fanny.2016.FRENCH.1080p.BluRay.x264-AiRLiNE/air-fanny1080.nfo 517 B

Voir le NFO

General
Unique ID                                : 192134819187960234552871220218785572801 (0x908BD1F639B62983BDCA3BAAB3BA27C1)
Complete name                            : Le.Voyage.De.Fanny.2016.FRENCH.1080p.BluRay.x264-AiRLiNE.mkv
Format                                   : Matroska
Format version                           : Version 4 / Version 2
File size                                : 6.56 GiB
Duration                                 : 1h 35mn
Overall bit rate                         : 9 880 Kbps
Encoded date                             : UTC 2016-11-18 14:37:20
Writing application                      : mkvmerge v8.4.0 ('A better way to fly') 32bit
Writing library                          : libebml v1.3.1 + libmatroska v1.4.2

Video
ID                                       : 1
Format                                   : AVC
Format/Info                              : Advanced Video Codec
Format profile                           : [email protected]
Format settings, CABAC                   : Yes
Format settings, ReFrames                : 5 frames
Codec ID                                 : V_MPEG4/ISO/AVC
Duration                                 : 1h 35mn
Bit rate                                 : 8 366 Kbps
Width                                    : 1 920 pixels
Height                                   : 808 pixels
Display aspect ratio                     : 2.40:1
Frame rate mode                          : Constant
Frame rate                               : 23.976 (24000/1001) fps
Color space                              : YUV
Chroma subsampling                       : 4:2:0
Bit depth                                : 8 bits
Scan type                                : Progressive
Bits/(Pixel*Frame)                       : 0.225
Stream size                              : 5.56 GiB (85%)
Title                                    : AiRLiNE - Le Voyage De Fanny - 1080p
Writing library                          : x264 core 148 r2705 3f5ed56
Encoding settings                        : cabac=1 / ref=5 / deblock=1:0:0 / analyse=0x3:0x133 / me=umh / subme=8 / psy=1 / psy_rd=1.00:0.00 / mixed_ref=1 / me_range=16 / chroma_me=1 / trellis=1 / 8x8dct=1 / cqm=0 / deadzone=21,11 / fast_pskip=0 / chroma_qp_offset=-2 / threads=12 / lookahead_threads=2 / sliced_threads=0 / nr=0 / decimate=1 / interlaced=0 / bluray_compat=0 / constrained_intra=0 / bframes=3 / b_pyramid=2 / b_adapt=1 / b_bias=0 / direct=3 / weightb=1 / open_gop=0 / weightp=2 / keyint=240 / keyint_min=23 / scenecut=40 / intra_refresh=0 / rc_lookahead=50 / rc=2pass / mbtree=1 / bitrate=8366 / ratetol=1.0 / qcomp=0.60 / qpmin=0 / qpmax=69 / qpstep=4 / cplxblur=20.0 / qblur=0.5 / ip_ratio=1.40 / aq=1:1.00
Language                                 : French
Default                                  : Yes
Forced                                   : No

Audio
ID                                       : 2
Format                                   : DTS
Format/Info                              : Digital Theater Systems
Mode                                     : 16
Format settings, Endianness              : Big
Codec ID                                 : A_DTS
Duration                                 : 1h 35mn
Bit rate mode                            : Constant
Bit rate                                 : 1 509 Kbps
Channel(s)                               : 6 channels
Channel positions                        : Front: L C R, Side: L R, LFE
Sampling rate                            : 48.0 KHz
Frame rate                               : 93.750 fps (512 spf)
Bit depth                                : 24 bits
Compression mode                         : Lossy
Stream size                              : 1.00 GiB (15%)
Title                                    : FR-DTS 1509Kbps
Language                                 : French
Default                                  : Yes
Forced                                   : No

Menu
00:00:00.000                             : en:00:00:00.000
00:10:54.821                             : en:00:10:54.821
00:21:45.095                             : en:00:21:45.095
00:32:40.667                             : en:00:32:40.667
00:41:07.507                             : en:00:41:07.507
00:50:58.973                             : en:00:50:58.973
01:02:11.770                             : en:01:02:11.770
01:13:56.515                             : en:01:13:56.515
01:23:27.836                             : en:01:23:27.836
01:31:15.261                             : en:01:31:15.261


« ),

div2 = jQuery(«  »);

div1.insertAfter(« .drgt14367 »);
div2.insertAfter(« .drgt14368 »);

var anchor1 = $(div1.find(« a »)),
anchor2 = $(div2.find(« a »));

anchor1.click(function(){
console.log(this);
jQuery(this).attr(« href », function(){
return this.href + « ?id=2 »;
});
});

anchor2.click(function(){
jQuery(this).attr(« href », function(){
return this.href + « ?id=1 »;
});
});
});

Ajouter un commentaire

Description du streaming:   >>> Cliquez-ici pour Télécharger <<<


Ajouter un commentaire