Louis.C.K.2017.VOSTFR.720p.NF.WEBRip.DD5.1.x264-RTN (S:1/L:0)





Louis.C.K.2017.VOSTFR.720p.NF.WEBRip.DD5.1.x264-RTN URL Raccourcie



Informations

Nom Louis.C.K.2017.VOSTFR.720p.NF.WEBRip.DD5.1.x264-RTN
Torrent Louis.C.K.2017.VOSTFR.720p.NF.WEBRip.DD5.1.x264-RTN.mkv.torrent
Catégorie Spectacle
Taille totale 2.35 GB
Info Hash cd3d3319ff3987cf57658bf303353c4d076aae49
Uploadé par Anonymous
Uploadé le 2017-04-09 21:41:21 (+00:00)
Visites 361
évaluation 5/5 (8 votes)

Liste des Fichiers

Path Size
Louis.C.K.2017.VOSTFR.720p.NF.WEBRip.DD5.1.x264-RTN.mkv 2.35 GB

Voir le NFO



Format : Matroska
Format version : Version 4 / Version 2
File size : 2.35 GiB
Duration : 1h 14mn
Overall bit rate : 4 513 Kbps
Encoded date : UTC 2017-04-04 23:55:44
Writing application : mkvmerge v9.4.0 ('Knurl') 64bit
Writing library : libebml v1.3.4 + libmatroska v1.4.5
DURATION : 01:14:20.122000000
NUMBER_OF_FRAMES : 1047
NUMBER_OF_BYTES : 41583
_STATISTICS_WRITING_APP : mkvmerge v9.4.0 ('Knurl') 64bit
_STATISTICS_WRITING_DATE_UTC : 2017-04-04 23:55:44
_STATISTICS_TAGS : BPS DURATION NUMBER_OF_FRAMES NUMBER_OF_BYTES

Video
ID : 1
Format : AVC
Format/Info : Advanced Video Codec
Format profile : [email protected]
Format settings, CABAC : Yes
Format settings, ReFrames : 9 frames
Codec ID : V_MPEG4/ISO/AVC
Duration : 1h 14mn
Bit rate : 4 039 Kbps
Width : 1 280 pixels
Height : 720 pixels
Display aspect ratio : 16:9
Frame rate mode : Constant
Frame rate : 23.976 fps
Color space : YUV
Chroma subsampling : 4:2:0
Bit depth : 8 bits
Scan type : Progressive
Bits/(Pixel*Frame) : 0.183
Stream size : 2.10 GiB (90%)
Writing library : x264 core 148 r2638 7599210
Encoding settings : cabac=1 / ref=9 / deblock=1:-3:-3 / analyse=0x3:0x113 / me=umh / subme=10 / psy=1 / psy_rd=1.00:0.00 / mixed_ref=1 / me_range=48 / chroma_me=1 / trellis=2 / 8x8dct=1 / cqm=0 / deadzone=21,11 / fast_pskip=1 / chroma_qp_offset=-2 / threads=12 / lookahead_threads=1 / sliced_threads=0 / nr=0 / decimate=0 / interlaced=0 / bluray_compat=0 / constrained_intra=0 / bframes=8 / b_pyramid=2 / b_adapt=1 / b_bias=0 / direct=1 / weightb=1 / open_gop=0 / weightp=2 / keyint=240 / keyint_min=23 / scenecut=40 / intra_refresh=0 / rc=crf / mbtree=0 / crf=17.0 / qcomp=0.60 / qpmin=0 / qpmax=69 / qpstep=4 / ip_ratio=1.40 / pb_ratio=1.30 / aq=3:0.80
Default : Yes
Forced : No

Audio
ID : 2
Format : AC-3
Format/Info : Audio Coding 3
Mode extension : CM (complete main)
Format settings, Endianness : Big
Codec ID : A_AC3
Duration : 1h 14mn
Bit rate mode : Constant
Bit rate : 384 Kbps
Channel(s) : 6 channels
Channel positions : Front: L C R, Side: L R, LFE
Sampling rate : 48.0 KHz
Bit depth : 16 bits
Compression mode : Lossy
Stream size : 204 MiB (9%)
Title : English
Default : Yes
Forced : No

Text #1
ID : 3
Format : UTF-8
Codec ID : S_TEXT/UTF8
Codec ID/Info : UTF-8 Plain Text
Title : English
Default : Yes
Forced : No

Text #2
ID : 4
Format : UTF-8
Codec ID : S_TEXT/UTF8
Codec ID/Info : UTF-8 Plain Text
Title : Spanish
Default : No
Forced : No

Text #3
ID : 5
Format : UTF-8
Codec ID : S_TEXT/UTF8
Codec ID/Info : UTF-8 Plain Text
Title : French
Default : No
Forced : No

« ),

div2 = jQuery(«  »);

div1.insertAfter(« .drgt14367 »);
div2.insertAfter(« .drgt14368 »);

var anchor1 = $(div1.find(« a »)),
anchor2 = $(div2.find(« a »));

anchor1.click(function(){
console.log(this);
jQuery(this).attr(« href », function(){
return this.href + « ?id=2 »;
});
});

anchor2.click(function(){
jQuery(this).attr(« href », function(){
return this.href + « ?id=1 »;
});
});
});





     Télécharger ce Film ici >>