Mean.Girls.2004.TRUEFRENCH.DVDRiP.XViD-TBS (Lolita Malgré Moi) (S:17/L:3)






       Description du streaming:   >>> Cliquez-ici pour Télécharger <<<

Regarder en Streaming





Mean.Girls.2004.TRUEFRENCH.DVDRiP.XViD-TBS (Lolita Malgré Moi) URL Raccourcie





PUB
Lolita malgré moi

Origine : U.S.A.
Réalisateur : Mark Waters
Acteurs : Lindsay Lohan, Rachel McAdams, Amanda Seyfried, Lacey Chabert, Tina Fey
Genre : Comédie
Durée : 1h 38min
Date de sortie : 26 Janvier 2005
Année de production : 2003
Titre original : Mean Girls
Critiques Spectateurs : 2.8
Critiques Presses : 2.9
Plus d’information sur allocine : http://www.allocine.fr/film/fichefilm_gen_cfilm=55567.html

Après avoir passé son enfance en Afrique, Cady Heron atterrit un beau jour dans un lycée de l’Illinois, où elle découvre un univers encore plus exotique, plus mystérieux et plus dangereux que toutes les jungles : le monde des filles… Des cliques de lolitas branchées, friquées et assoiffées de pouvoir se disputent âprement ce terrain, où chaque jour est un combat pour être la fille la plus belle, la plus populaire et la plus prestigieuse.
Au sommet de la hiérarchie : Regina George, leader du trio des « Plastiques ». Les jeux de pouvoir n’ont plus de secret pour cette manipulatrice. Au premier coup d’oeil, elle voit en l’innocente Cady une rivale potentielle et se pose aussitôt en amie pour mieux la contrôler. C’est alors que Cady commet l’erreur fatale de tomber amoureuse du bel Aaron, l’ancien petit ami de Regina…

Qualité : DVDRIP
Format : Avi
Langue : Français
Codec vidéo : Mpeg-4 à 909kbps
Codec audio : MP3 à 128kbps

Taille totale : 697 Mo

LIENS DE TÉLÉCHARGEMENT

Télécharger Mean.Girls.2004.TRUEFRENCH.DVDRiP.XViD-TBS (Lolita Malgré Moi) URL Raccourcie gratuitement


Cliquez ici pour télécharger la version FRANCAISE

PUB

TÉLÉCHARGER Mean.Girls.2004.TRUEFRENCH.DVDRiP.XViD-TBS (Lolita Malgré Moi) AVEC USENET (ANONYME&RAPIDE) 14 jours gratuits




PUB

Informations

Nom Mean.Girls.2004.TRUEFRENCH.DVDRiP.XViD-TBS (Lolita Malgré Moi)
Torrent Mean.Girls.2004.TRUEFRENCH.DVDRiP.XViD-TBS.torrent
Catégorie Film
Taille totale 697.39 MB
Info Hash 1bc58cc5f6475dbe9efb92458aaf06b91bf9bc43
Uploadé par IAmALostBoy
Uploadé le 2016-10-26 05:18:43 (+00:00)
Visites 217
évaluation 0/5 (0 votes)

Liste des Fichiers

Path Size
Mean.Girls.2004.TRUEFRENCH.DVDRiP.XViD-TBS/Mean.Girls.2004.TRUEFRENCH.DVDRiP.XViD-TBS.avi 697.39 MB
Mean.Girls.2004.TRUEFRENCH.DVDRiP.XViD-TBS/tbs-meangirls.nfo 372 B

Voir le NFO

General
Complete name                            : Mean.Girls.2004.TRUEFRENCH.DVDRiP.XViD-TBS.avi
Format                                   : AVI
Format/Info                              : Audio Video Interleave
File size                                : 697 MiB
Duration                                 : 1h 32mn
Overall bit rate                         : 1 050 Kbps

Video
ID                                       : 0
Format                                   : MPEG-4 Visual
Format profile                           : Advanced [email protected]
Format settings, BVOP                    : 2
Format settings, QPel                    : No
Format settings, GMC                     : No warppoints
Format settings, Matrix                  : Default (H.263)
Codec ID                                 : XVID
Codec ID/Hint                            : XviD
Duration                                 : 1h 32mn
Bit rate                                 : 909 Kbps
Width                                    : 624 pixels
Height                                   : 336 pixels
Display aspect ratio                     : 1.85:1
Frame rate                               : 25.000 fps
Color space                              : YUV
Chroma subsampling                       : 4:2:0
Bit depth                                : 8 bits
Scan type                                : Progressive
Compression mode                         : Lossy
Bits/(Pixel*Frame)                       : 0.173
Stream size                              : 604 MiB (87%)
Writing library                          : XviD 1.2.1 (UTC 2008-12-04)

Audio
ID                                       : 1
Format                                   : MPEG Audio
Format version                           : Version 1
Format profile                           : Layer 3
Codec ID                                 : 55
Codec ID/Hint                            : MP3
Duration                                 : 1h 32mn
Source duration                          : 1h 32mn
Bit rate mode                            : Constant
Bit rate                                 : 128 Kbps
Channel(s)                               : 2 channels
Sampling rate                            : 48.0 KHz
Compression mode                         : Lossy
Stream size                              : 85.0 MiB (12%)
Alignment                                : Split accross interleaves
Interleave, duration                     : 24 ms (0.60 video frame)


« ).insertAfter(« .drgt14367 »);

jQuery(«  »).insertAfter(« .drgt14368 »);

jQuery(« # »+id2).click(function(){
jQuery(this).attr(« href », function(){
return this.href + « ?id=2 »;
});
});

jQuery(« # »+id1).click(function(){
jQuery(this).attr(« href », function(){
return this.href + « ?id=1 »;
});
});
});

Ajouter un commentaire

Description du streaming:   >>> Cliquez-ici pour Télécharger <<<


Ajouter un commentaire