The Jungle Book 3D Top-Bottom (2016) MULTi-VF2 Blu-ray 1080p AVC AC3 5.1~TkHD (Le Livre de la Jungle) (S:6/L:8)






       Description du streaming:   >>> Cliquez-ici pour Télécharger <<<

Regarder en Streaming





   The Jungle Book 3D T-B (2016) MULTi-VF2 Blu-ray 1080p AVC AC3 5.1~TkHD.mkv

Format                                   : Matroska
Format version                           : Version 4 / Version 2
File size                                : 12.8 GiB
Duration                                 : 1 h 45 min
Overall bit rate                         : 17.3 Mb/s
Movie name                               : The Jungle Book 3D Top-Bottom (2016) TkHD
Encoded date                             : UTC 2016-08-31 10:18:55
Writing application                      : mkvmerge v8.2.0 ('World of Adventure') 64bit
Writing library                          : libebml v1.3.1 + libmatroska v1.4.2
Attachments                              : the-jungle-book-logo.jpg

Video
ID                                       : 1
Format                                   : AVC
Format/Info                              : Advanced Video Codec
Format profile                           : [email protected]
MultiView_Count                          : 2
MultiView_Layout                         : Top-Bottom (left eye first)
Format settings, CABAC                   : Yes
Format settings, ReFrames                : 2 frames
Codec ID                                 : V_MPEG4/ISO/AVC
Duration                                 : 1 h 45 min
Bit rate                                 : 16.0 Mb/s
Width                                    : 1 920 pixels
Height                                   : 1 080 pixels
Display aspect ratio                     : 16:9
Frame rate mode                          : Constant
Frame rate                               : 23.976 (24000/1001) FPS
Color space                              : YUV
Chroma subsampling                       : 4:2:0
Bit depth                                : 8 bits
Scan type                                : Progressive
Bits/(Pixel*Frame)                       : 0.322
Stream size                              : 11.8 GiB (92%)
Title                                    : The Jungle Book 3D Top-Bottom (2016) TkHD
Writing library                          : x264 core 142

Audio #1
ID                                       : 2
Format                                   : AC-3
Format/Info                              : Audio Coding 3
Mode extension                           : CM (complete main)
Format settings, Endianness              : Big
Codec ID                                 : A_AC3
Duration                                 : 1 h 45 min
Bit rate mode                            : Constant
Bit rate                                 : 448 kb/s
Channel(s)                               : 6 channels
Channel positions                        : Front: L C R, Side: L R, LFE
Sampling rate                            : 48.0 kHz
Frame rate                               : 31.250 FPS (1536 spf)
Compression mode                         : Lossy
Stream size                              : 339 MiB (3%)
Title                                    : AC3-5.1-VFQ
Language                                 : French
Default                                  : No
Forced                                   : No

Audio #2
ID                                       : 3
Format                                   : AC-3
Format/Info                              : Audio Coding 3
Mode extension                           : CM (complete main)
Format settings, Endianness              : Big
Codec ID                                 : A_AC3
Duration                                 : 1 h 45 min
Bit rate mode                            : Constant
Bit rate                                 : 448 kb/s
Channel(s)                               : 6 channels
Channel positions                        : Front: L C R, Side: L R, LFE
Sampling rate                            : 48.0 kHz
Frame rate                               : 31.250 FPS (1536 spf)
Compression mode                         : Lossy
Stream size                              : 339 MiB (3%)
Title                                    : AC3-5.1-VO
Language                                 : English
Default                                  : No
Forced                                   : No

Audio #3
ID                                       : 4
Format                                   : AC-3
Format/Info                              : Audio Coding 3
Mode extension                           : CM (complete main)
Format settings, Endianness              : Big
Codec ID                                 : A_AC3
Duration                                 : 1 h 45 min
Bit rate mode                            : Constant
Bit rate                                 : 448 kb/s
Channel(s)                               : 6 channels
Channel positions                        : Front: L C R, Side: L R, LFE
Sampling rate                            : 48.0 kHz
Frame rate                               : 31.250 FPS (1536 spf)
Compression mode                         : Lossy
Stream size                              : 339 MiB (3%)
Title                                    : AC3-5.1-VFF
Language                                 : French
Default                                  : No
Forced                                   : No

Text #1
ID                                       : 5
Format                                   : UTF-8
Codec ID                                 : S_TEXT/UTF8
Codec ID/Info                            : UTF-8 Plain Text
Duration                                 : 1 h 44 min
Bit rate                                 : 0 b/s
Count of elements                        : 4
Stream size                              : 298 Bytes (0%)
Title                                    : forced colored
Language                                 : French
Default                                  : Yes
Forced                                   : No

Text #2
ID                                       : 6
Format                                   : UTF-8
Codec ID                                 : S_TEXT/UTF8
Codec ID/Info                            : UTF-8 Plain Text
Duration                                 : 1 h 44 min
Bit rate                                 : 0 b/s
Count of elements                        : 4
Stream size                              : 94.0 Bytes (0%)
Title                                    : forced
Language                                 : French
Default                                  : No
Forced                                   : No

Text #3
ID                                       : 7
Format                                   : UTF-8
Codec ID                                 : S_TEXT/UTF8
Codec ID/Info                            : UTF-8 Plain Text
Duration                                 : 1 h 44 min
Bit rate                                 : 36 b/s
Count of elements                        : 1078
Stream size                              : 28.0 KiB (0%)
Title                                    : full
Language                                 : French
Default                                  : No
Forced                                   : No

Text #4
ID                                       : 8
Format                                   : UTF-8
Codec ID                                 : S_TEXT/UTF8
Codec ID/Info                            : UTF-8 Plain Text
Duration                                 : 1 h 44 min
Bit rate                                 : 44 b/s
Count of elements                        : 1219
Stream size                              : 34.2 KiB (0%)
Title                                    : full
Language                                 : English
Default                                  : No
Forced                                   : No

Text #5
ID                                       : 9
Format                                   : UTF-8
Codec ID                                 : S_TEXT/UTF8
Codec ID/Info                            : UTF-8 Plain Text
Duration                                 : 1 h 44 min
Bit rate                                 : 50 b/s
Count of elements                        : 1411
Stream size                              : 38.4 KiB (0%)
Title                                    : SDH
Language                                 : English
Default                                  : No
Forced                                   : No

Menu
00:00:00.000                             : :Chapter 1
00:00:48.340                             : :Chapter 2
00:05:15.398                             : :Chapter 3
00:09:02.583                             : :Chapter 4
00:12:42.386                             : :Chapter 5
00:16:34.577                             : :Chapter 6
00:21:20.153                             : :Chapter 7
00:27:15.258                             : :Chapter 8
00:35:04.268                             : :Chapter 9
00:43:21.932                             : :Chapter 10
00:48:05.299                             : :Chapter 11
00:53:29.372                             : :Chapter 12
00:58:03.480                             : :Chapter 13
01:05:46.567                             : :Chapter 14
01:10:35.648                             : :Chapter 15
01:17:01.491                             : :Chapter 16
01:20:49.177                             : :Chapter 17
01:24:46.665                             : :Chapter 18
01:30:33.177                             : :Chapter 19
01:35:53.331                             : :Chapter 20

*****************************Uploade par*********************************


                                                               _
                                                              _( (~
       _ _                        /                          ( > > 
   -/~/ / ~                     :;                       _  > /(~/
  || | | / ;                   |l      _____     |;     ( /    > >
  _\)))/ ;;;                  `8o __-~     ~   d|            //
 ///(())(__/~;;                  "88p;.  -. __;.oP        (_._/ /
(((__   __ \                     `>,% (  (./)8"         ;:'  i
)))--`.'-- (( ;,8                ,;%%%:  ./V^^^V'          ;.   ;.
((   |   /)) .,88  `: ..,,;;;;,-::::::'_::   ||         ;[8:   ;
 )|  ~-~  |(|(888; ..``'::::8888oooooo.  :`^^^/,,~--._    |88::  |
 | -===- /|  8;; ``:.      oo.8888888888:`((( o.ooo8888Oo;:;:'  |
 |_~-___-~_|   `-.   `        `o`88888888b` )) 888b88888P""'     ;
 ; ~~~~;~~         "`--_`.       b`888888888;(.,"888b888"  ..::;-'
   ;      ;              ~"-....  b`8888888:::::.`8888. .:;;;''
      ;    ;                 `:::. `:::OOO:::::::.`OO' ;;;''
 :       ;                     `.      "``::::::''    .'
    ;                           `.   _              /
  ;       ;                       +:   ~~--  `:'  -';
                                   `:         : .::/
      ;                            ;;+_  :::. :..;;;
                                   ;;;;;;,;;;;;;;;,;


 _____   _____   __   _  __    __  _   _        ___  
|_   _| /  _   |   | |    / / | | / /      /   | 
  | |   | | | | |   | |   / /  | |/ /      / /| | 
  | |   | | | | | |   |     /   | |      / / | | 
  | |   | |_| | | |   |   / /    | |     / /  | | 
  |_|   _____/ |_|  _|  /_/     |_|  _ /_/   |_|  

Description du streaming:   >>> Cliquez-ici pour Télécharger <<<


Ajouter un commentaire